#TITLE:第40号交响曲;
#SUBTITLE:Symphony No.40;
#ARTIST:莫扎特(W.A.Wolfgang Amadeus Mozart);
#TITLETRANSLIT:;
#SUBTITLETRANSLIT:;
#ARTISTTRANSLIT:;
#CREDIT:;
#BANNER:40Ž-logo.jpg;
#BACKGROUND:40Ž.jpg;
#LYRICSPATH:;
#CDTITLE:Lan.png;
#MUSIC:40Ž.mp3;
#OFFSET:0.000;
#SAMPLESTART:100.000;
#SAMPLELENGTH:12.000;
#SELECTABLE:YES;
#BPMS:0.000=69.278,4.000=55.000,28.000=56.000,29.000=75.000,30.000=91.000,32.000=56.000,32.500=76.000,34.000=91.000,35.750=78.000,38.000=90.000,41.000=79.000,41.500=71.000,42.500=64.000,43.000=58.000,44.000=71.000,76.000=80.000,76.500=90.000,78.000=107.000,80.000=72.000,80.500=92.000,82.000=107.000,83.750=94.000,87.000=106.000,88.000=120.000,92.000=126.000,124.000=170.000,127.000=126.000;
#STOPS:;
#BGCHANGES:;
// cache tags:
#FIRSTBEAT:4.000;
#LASTBEAT:308.000;
#SONGFILENAME:Songs/lan sky/40Ž/40Ž.sm;
#HASMUSIC:1;
#HASBANNER:1;
#MUSICLENGTH:182.576;
// end cache tags

//---------------dance-single - sky----------------
#NOTES:
     dance-single:
     sky:
     Hard:
     9:
     0.732,0.780,0.833,0.120,0.696,759.000,152.000,22.000,0.000,8.000:

0000
0000
0000
0000
,
1000
0000
0000
0100
0100
0000
0001
0000
0010
0000
0000
0100
0100
0000
1000
0000
,
0001
0000
0000
0010
0010
0000
0100
0000
1010
0000
0000
0000
0000
0000
0100
0010
,
0101
0000
1000
0100
1010
0000
0100
0010
0101
0000
0100
0000
1000
0000
0010
0100
,
1010
0000
0001
0010
0101
0000
0010
0100
1010
0000
0011
0000
0001
0000
1000
0100
,
1010
0000
0100
0010
0101
0000
1000
0100
1010
0000
0010
0000
0001
0000
0001
0010
,
0101
0000
0010
0100
1010
0000
0001
0010
0101
0000
1100
0000
1000
0000
0100
0010
,
1001
0010
0010
1000
0101
1000
0010
0100
1001
0100
0010
0100
0010
0001
0010
0100
,
1011
0100
0001
0110
1000
0101
0010
0010
1100
0000
0100
0000
0001
0010
0100
1000
,
0002
0000
0000
0010
0203
0000
0000
0311
,
1010
0100
0011
0100
0001
0110
1010
0100
,
1011
0000
0000
0100
1010
0000
0011
0000
0100
0000
0000
1100
0011
0000
0000
0000
,
0101
0000
0000
0010
1100
0000
0010
0100
1010
0000
0100
0000
0011
0000
1000
0000
,
0101
0000
0000
0100
1010
0000
0001
0000
1010
0000
0110
0000
0011
0000
0000
0000
,
0001
0100
1000
0000
0100
0010
0001
0000
1010
0000
0101
0000
0010
0000
1001
0100
,
0010
0000
1001
0010
0100
0000
0100
0010
0101
0000
0010
0000
1100
0000
0101
0010
,
0001
0000
0101
0010
0100
0000
1010
0100
0001
0000
0010
0000
0100
0000
1001
0100
,
0010
0000
1001
0010
0100
0000
0001
0010
1000
0000
0100
0000
0011
0000
0101
0010
,
0001
0000
1010
0100
1000
0000
0010
0001
1000
0000
0100
0000
0011
0000
0100
0010
,
1001
0000
0100
0000
0010
0000
0001
0000
1010
0000
0101
0000
0011
0000
1000
0010
,
0101
0000
0010
0000
0100
0000
1000
0000
1010
0000
0100
0000
0010
0100
0010
0100
,
0002
0000
0000
0000
0000
0000
0000
0000
0203
0000
0000
0000
0310
1000
0010
0100
,
0010
0000
0001
0001
1010
0000
0100
0100
0010
0001
0100
0000
0100
0000
0001
0010
,
0100
0000
0010
0100
1000
0000
0100
0010
0101
0000
0001
0000
0001
0000
0000
0000
,
0001
0001
0100
0100
0001
0001
0100
0100
0010
0010
1000
1000
0010
0010
1000
1000
,
0001
0001
0100
0100
0001
0001
0100
0100
0010
0010
1000
1000
0010
0010
1000
1000
,
0001
0001
0100
0100
0001
0001
0100
0100
0010
0010
1000
1000
0010
0010
1000
1000
,
0001
0001
0100
0100
0001
0001
0100
0100
0010
0010
1000
1000
0010
0010
1000
1000
,
0100
0100
0010
0010
0001
0001
0010
0010
0100
0100
1000
1000
0100
0100
0010
0010
,
0001
0001
0010
0010
0100
0100
1000
1000
0100
0100
0010
0010
0001
0001
0010
0010
,
0100
0100
1000
1000
0100
0100
1000
1000
0001
0001
0010
0010
0001
0001
0010
0010
,
2000
0000
0000
0000
0000
0000
0000
0000
0000
0000
0000
0000
0000
0000
3100
0010
,
0101
0000
0010
0100
1000
0000
0101
0010
1001
0000
0100
0000
0000
0000
0001
0010
,
0101
0000
1000
0100
0010
0000
0101
0010
1001
0000
0010
0000
0000
0000
0100
0010
,
0101
0000
0010
0100
1000
0000
0101
0010
1001
0000
0100
0000
0000
0000
0001
0010
,
0101
0000
1000
0100
0010
0000
0101
0010
1001
0000
0010
0000
0000
0000
0010
0001
,
1010
0000
0100
0000
0010
0000
0001
0000
0101
0000
0010
0000
0000
0000
0100
0010
,
1001
0000
0010
0000
0100
0000
1000
0000
1010
0000
0100
0000
1000
0100
0010
0001
,
0020
0000
0230
0000
,
0311
0000
0000
0000
0001
0000
0010
0010
1100
0000
0000
0000
0100
0000
0010
0010
,
0101
0000
0001
0001
1010
0000
1000
1000
0101
0000
0001
0000
0001
0000
0100
0010
,
0101
0000
0010
0100
1000
0000
0101
0010
1001
0000
0100
0000
0000
0000
0001
0010
,
0101
0000
1000
0100
0010
0000
0101
0010
1001
0000
0010
0000
0000
0000
0100
0010
,
0101
0000
0010
0100
1000
0000
0101
0010
1001
0000
0100
0000
0000
0000
0001
0010
,
0101
0000
1000
0100
0010
0000
0101
0010
2001
0000
0000
0000
0000
0000
0000
0000
,
3002
0000
0000
0000
1103
0101
0010
0000
,
0011
0000
1010
0000
0100
0000
1000
0100
0011
0000
1010
0000
0100
0000
0010
0000
,
0011
0000
1010
0000
0100
0000
0001
0000
0001
0010
0100
1000
0100
0010
0100
0010
,
1000
0100
0010
0001
0100
0010
0100
0010
1000
0100
0010
0001
0100
0010
0100
0010
,
1000
0100
0010
0001
0100
0010
0100
0010
1001
0100
0010
0001
0100
0010
0100
0010
,
0101
0010
0100
1000
0010
0100
0010
0100
1001
0100
0010
0001
0010
0100
0010
0100
,
1010
0100
0010
0001
0100
0010
0100
0010
1100
0000
0000
0000
0011
0000
0000
0000
,
0000
0000
0000
0000
2000
0000
0000
0100
,
3002
0000
0000
0000
0000
0000
0010
0100
1013
0000
0100
0000
0010
0000
0001
0000
,
0101
0000
0010
0000
2000
0000
0000
0100
,
3001
0010
0100
1000
1010
0100
0010
0001
,
0010
0000
0101
0000
1000
0100
0010
0001
0020
0000
0000
0000
0000
0000
0100
0000
,
2030
0000
0000
0000
3000
0101
0001
0010
,
1000
0000
0000
0010
0101
0000
0000
0000
0002
0000
0000
0000
0000
0000
0010
0000
,
1003
0100
0010
0001
0100
0010
0000
0101
,
0010
0100
0000
1010
0100
0010
0000
0101
,
1000
0100
0010
0001
0010
0100
1010
0000
0001
0010
0100
1000
0100
0010
0001
0010
,
2100
0000
3200
0000
,
0302
0000
0000
0000
0000
0000
0000
0000
1013
0100
0010
0001
0010
0100
1000
0100
,
0010
0001
0010
0100
1000
0100
0010
0001
1010
0000
0000
1000
0101
0000
0000
0010
,
1100
0000
0000
0100
0011
0000
0000
0100
2000
0000
0000
0000
0001
0010
0100
0010
,
3001
0010
0100
1000
0010
0100
0010
0100
1010
0100
0010
0100
0001
0010
0100
1000
,
0101
0010
0100
1000
0100
0010
0100
0010
1001
0100
0010
0001
0100
0010
0100
0010
,
1001
0100
0010
0001
0100
0010
0100
0010
1001
0100
0010
0001
0100
0010
0100
0010
,
0002
0000
0000
0000
0000
0000
0000
0000
1013
0000
0000
0000
0101
0000
0010
0100
,
1010
0000
0000
0101
0010
0000
0000
0010
0101
0000
0010
0100
1000
0100
0010
0001
,
0010
0100
1000
0100
0010
0001
0010
0100
1010
0000
0100
0000
0010
0000
0001
0000
,
0101
0000
0010
0100
1000
0100
0010
0001
0010
0100
1000
0100
0010
0001
0010
0100
,
1010
0100
0010
0001
0101
0010
0100
1000
,
0101
0000
0010
0010
1100
0000
0010
0010
0101
0000
0010
0010
1100
0000
0010
0010
,
1001
0000
0010
0010
0101
0000
0010
0010
1001
0000
0110
0000
1001
0000
0110
0000
,
2002
0000
0000
0000
,
3003
0000
0000
0000
;
